Подписывайся на наш канал в Telegram https://t.me/torrentok и получи доступ к торрентам без ограничений!
.
Авторизация | Регистрация
torrent123.club


Невидимый страж / El guardian invisible (2017) WEBRip [H.264 / 1080p-LQ] [MVO] [AD] торрент скачать бесплатно

Дата: 26-07-2020, 05:00 | .torrent скачали: 0

Невидимый страж / El guardian invisible (2017) WEBRip [H.264 / 1080p-LQ] [MVO] [AD]Производство: Германия, Испания/Arte, Atresmedia Cine, Nadcon Film, Nostromo Pictures, Zweites Deutsches Fernsehen (ZDF)
Жанр: Триллер, криминал
Режиссер: Фернандо Гонзалез Молина

Актеры
Марта Этура, Эльвира Мингес, Нене, Франсеск Орелья, Itziar Aizpuru, Бенджамин Нортовер, Miren Gaztañaga, Idurre Puertas, Патриция Лопез, Микель Фернандес

Описание

Инспектор Амайя Салазар возглавляет расследование по поимке серийного убийцы в дождливом городе в самом сердце страны басков. В котором она родилась и куда надеялась никогда не возвращаться. Разрываясь между рациональной частью работы и местными мифами, Амайя должна побороть своих внутренних демонов, чтобы противостоять вполне реальному злу.Часть 1 в Базтанской трилогии .
Вся Базтанская трилогия

Продолжительность: 02: 10: 09
Качество видео: WEBRip
Перевод: Многоголосый закадровый, профессиональный (Синема УС)
Субтитры: Отсутствуют
Реклама: Присутствует несколько текстовых вставок.
Видео: AVC/H.264, 1920x802, ~3587 Kbps
Аудио: AC3, 2 ch, 384 Kbps
Общее
Полное имя : D: NNMНевидимый стражThe.Invisible.Guardian.2017.WEBRip.1080p-LQ.mkv
Формат : Matroska
Версия формата : Version 2
Размер файла : 3, 68 Гбайт
Продолжительность : 2 ч. 10 м.
Режим общего битрейта : Постоянный
Общий поток : 4052 Кбит/сек
Программа кодирования : libmatroska 1.4.1
Библиотека кодирования : SolveigMM Matroska Muxer Version 1.0.1904.23
Видео
Идентификатор : 1
Формат : AVC
Формат/Информация : Advanced Video Codec
Профиль формата : High@L4.1
Настройки формата : CABAC/5 Ref Frames
Параметр CABAC формата : Да
Параметр RefFrames формата : 5 кадров
Идентификатор кодека : V_MPEG4/ISO/AVC
Продолжительность : 2 ч. 10 м.
Вид битрейта : Постоянный
Битрейт : 3587 Кбит/сек
Номинальный битрейт : 4000 Кбит/сек
Ширина : 1920 пикселей
Высота : 802 пикселя
Соотношение сторон : 2, 40: 1
Режим частоты кадров : Постоянный
Частота кадров : 24, 000 кадра/сек
Стандарт вещания : Component
Цветовое пространство : YUV
Субдискретизация насыщенности : 4: 2: 0
Битовая глубина : 8 бит
Тип развёртки : Прогрессивная
Бит/(Пиксели*Кадры) : 0.097
Размер потока : 3, 26 Гбайт (89%)
Default : Нет
Forced : Нет
Цветовой диапазон : Limited
Основные цвета : BT.709
Характеристики трансфера : BT.709
Коэффициенты матрицы : BT.709
Аудио
Идентификатор : 2
Формат : AC-3
Формат/Информация : Audio Coding 3
Коммерческое название : Dolby Digital
Идентификатор кодека : A_AC3
Продолжительность : 2 ч. 10 м.
Вид битрейта : Постоянный
Битрейт : 384 Кбит/сек
Каналы : 2 канала
ChannelLayout : L R
Частота : 48, 0 КГц
Частота кадров : 31, 250 кадров/сек (1536 SPF)
Метод сжатия : С потерями
Размер потока : 357 Мбайт (9%)
Язык : Russian
ServiceKind/String : Complete Main
Default : Нет
Forced : Нет

Скриншоты для ознакомления



Все одноименные релизы в Клубе Время раздачи: 24/7 (до первых 3-5 скачавших)
Рейтинг →
 (голосов: 1, оценка 4/5, голосовать можно 1 раз )

Другие торренты по теме:

  • Невидимый страж / El guardián invisible (2017) WEBRip [H.264 / 720p-LQ] [MVO] [AD]
  • Невидимый страж / El guardian invisible (2017) WEBRip [MVO] [AD]


    • Комментарии (0):

      Информация

      Информация

        Посетители, находящиеся в группе Гости, не могут оставлять комментарии в данной новости.