Подписывайся на наш канал в Telegram https://t.me/torrentok и получи доступ к торрентам без ограничений!
.
Авторизация | Регистрация
torrent123.club


Вавилон / Babel (2006) BDRip [1080p] ATV3 торрент скачать бесплатно

Дата: 30-06-2020, 05:00 | .torrent скачали: 1

Вавилон / Babel (2006) BDRip [1080p] ATV3Производство: Франция, США, Мексика/Anonymous Content, Central Films, Media Rights Capital, Paramount Pictures, Paramount Vantage, Zeta Film
Жанр: Драма
Режиссер: Алехандро Гонсалес Иньярриту
Продюсер: Стив Голин, Джон Килик, Ахмед Абуноум
Актеры: Брэд Питт, Кейт Бланшетт, Гаэль Гарсиа Берналь, Махима Шодри, Джейми МакБрайд, Кодзи Якусе, Шилпа Шетти, Линси Бошам

Описание

Действие фильма разворачивается в Марокко, Мексике и Японии, а отправной точкой сюжета становится трагедия, которую супруги Ричард и Сюзан переживают во время своей туристической поездки по Марокко. Сюзан становится жертвой шальной пули, выпущенной из ружья по туристическому автобусу двумя местными мальчишками.
В это же время двое детей Ричарда и Сюзан, оставленные под присмотр няни-мексиканки, отправляются вместе с ней в Мексику на свадьбу ее сына, и это путешествие оказывается в итоге далеко не из легких. И, наконец, в Токио тяжело переживающая самоубийство матери глухонемая студентка Чиеко ведет себя вызывающе, вступает в перепалку с отцом и разными способами срывает свое зло на окружающих…

Возраст: 16+ (зрителям, достигшим 16)
Рейтинг MPAA: R (лицам до 17 лет обязательно присутствие взрослого)
Продолжительность: 02: 23: 29
Качество видео: BDRip 1080р
Перевод: Дублированный, профессиональный многоголосый, авторский одноголосый
Субтитры: Русские (full), английские (full)
Видео : H.264, 1920x1040 (1.85: 1), ~9560 kbps, 23.976 fps
Аудио#1 : AAC, 2.0 ch, 182 Kbps - Русский DUB
Аудио#2 : AAC, 2.0 ch, 177 Kbps - Русский MVO, Киномания
Аудио#3 : AAC, 2.0 ch, 177 Kbps - Русский AVO, Ю. Сербин
Аудио#4 : AAC, 2.0 ch, 183 Kbps - English Original
Аудио#5 : AC3, 6.0 ch, 448 Kbps - Русский DUB
Аудио#6 : AC3, 6.0 ch, 448 Kbps - Русский MVO, Киномания
Аудио#7 : AC3, 6.0 ch, 448 Kbps - Русский AVO, Ю. Сербин
Аудио#8 : AC3, 6.0 ch, 640 Kbps - English Original
Общее
Полное имя : /Users/Dropbox/Babel.2006.BDRip.1080р.NNMClub.m4v
Формат : MPEG-4
Идентификатор кодека : M4V (M4V /M4A /mp42/isom)
Размер файла : 12, 3 Гбайт
Продолжительность : 2 ч. 23 м.
Режим общего битрейта : Переменный
Общий поток : 12, 2 Мбит/сек
Название фильма : Вавилон (2006)
Исполнитель : Alejandro González Iñárritu
Режиссёр : Alejandro González Iñárritu
Исполнитель : Brad Pitt/Cate Blanchett/Gael García Bernal/Kôji Yakusho/Adriana Barraza/Rinko Kikuchi
Сценарист : David N. Titcher
Продюсер : Alejandro González Iñárritu/Steve Golin
Студия-производитель : Lionsgate
Жанр : Драма
Тип содержимого : Short Film
Дата записи : UTC 2007-02-01 08: 00: 00
Дата кодирования : UTC 2020-06-29 18: 45: 11
Дата пометки : UTC 2020-06-29 18: 57: 43
Авторское право : © 2006 Paramount Vantag, A Division of Paramount Pictures And Summit Entertainment.
Обложка : Yes
LongDescription : Супруги едут в отпуск в Марокко, где с ними происходит трагедия в пустыне. В фильме переплетаются несколько сюжетных линий, затрагивающих истории четырех семей.
AppleStoreCountry : Russia
AppleStoreCatalogID : 1056910413
ContentRating : ru-movie|18+|400|
Видео #1
Идентификатор : 1
Формат : AVC
Формат/Информация : Advanced Video Codec
Профиль формата : High@L4.1
Настройки формата : CABAC/4 Ref Frames
Параметр CABAC формата : Да
Параметр ReFrames формата : 4 кадра
Идентификатор кодека : avc1
Идентификатор кодека/Информация : Advanced Video Coding
Продолжительность : 2 ч. 23 м.
Битрейт : 9 560 Кбит/сек
Ширина : 1 920 пикселей
Высота : 1 040 пикселей
Соотношение сторон : 1, 85: 1
Режим частоты кадров : Переменный
Частота кадров : 23, 976 (24000/1001) кадра/сек
Минимальная частота кадров : 23, 810 кадра/сек
Максимальная частота кадров : 24, 390 кадра/сек
Цветовое пространство : YUV
Субдискретизация насыщенности : 4: 2: 0
Битовая глубина : 8 бит
Тип развёртки : Прогрессивная
Бит/(Пиксели*Кадры) : 0.200
Размер потока : 9, 53 Гбайт (78%)
Библиотека кодирования : x264 core 142 r2409 d6b4e63
Настройки программы : cabac=1/ref=4/deblock=1: -3: -3/analyse=0x3: 0x133/me=umh/subme=11/psy=1/psy_rd=1.00: 0.00/mixed_ref=1/me_range=32/chroma_me=1/trellis=2/8x8dct=1/cqm=0/deadzone=21, 11/fast_pskip=0/chroma_qp_offset=-2/threads=12/lookahead_threads=1/sliced_threads=0/nr=0/decimate=1/interlaced=0/bluray_compat=0/constrained_intra=0/bframes=6/b_pyramid=2/b_adapt=2/b_bias=0/direct=3/weightb=1/open_gop=0/weightp=2/keyint=240/keyint_min=23/scenecut=40/intra_refresh=0/rc=2pass/mbtree=0/bitrate=9560/ratetol=2.0/qcomp=0.60/qpmin=0/qpmax=69/qpstep=4/cplxblur=20.0/qblur=0.5/ip_ratio=1.40/pb_ratio=1.30/aq=1: 0.90
Язык : English
Дата кодирования : UTC 2020-06-29 18: 45: 11
Дата пометки : UTC 2020-06-29 18: 57: 12
Menus : 12, 13
Codec configuration box : avcC
Видео #2
Идентификатор : 13
Формат : JPEG
Идентификатор кодека : jpeg
Продолжительность : 2 ч. 23 м.
Вид битрейта : Переменный
Битрейт : 970 бит/сек
Ширина : 640 пикселей
Высота : 346 пикселей
Соотношение сторон : 1, 85: 1
Режим частоты кадров : Переменный
Частота кадров : 0, 003 кадр/сек
Минимальная частота кадров : 0, 002 кадр/сек
Максимальная частота кадров : 0, 008 кадр/сек
Цветовое пространство : YUV
Субдискретизация насыщенности : 4: 2: 0
Битовая глубина : 8 бит
Метод сжатия : С потерями
Бит/(Пиксели*Кадры) : 1.460
Размер потока : 948 Кбайт (0%)
Язык : English
Default : Нет
Дата кодирования : UTC 2020-06-29 18: 57: 41
Дата пометки : UTC 2020-06-29 18: 57: 42
Menu For : 1
ColorSpace_ICC : RGB
Аудио #1
Идентификатор : 2
Формат : AAC LC
Формат/Информация : Advanced Audio Codec Low Complexity
Идентификатор кодека : mp4a-40-2
Продолжительность : 2 ч. 23 м.
Вид битрейта : Переменный
Битрейт : 182 Кбит/сек
Максимальный битрейт : 297 Кбит/сек
Каналы : 2 канала
Channel layout : L R
Частота : 48, 0 КГц
Частота кадров : 46, 875 кадров/сек (1024 SPF)
Метод сжатия : С потерями
Размер потока : 187 Мбайт (1%)
Язык : Russian
Default : Да
Alternate group : 1
Дата кодирования : UTC 2020-06-29 18: 45: 11
Дата пометки : UTC 2020-06-29 18: 57: 12
Fallback From : 6
tagc : public.main-program-content
Аудио #2
Идентификатор : 3
Формат : AAC LC
Формат/Информация : Advanced Audio Codec Low Complexity
Идентификатор кодека : mp4a-40-2
Продолжительность : 2 ч. 23 м.
Вид битрейта : Переменный
Битрейт : 177 Кбит/сек
Максимальный битрейт : 301 Кбит/сек
Каналы : 2 канала
Channel layout : L R
Частота : 48, 0 КГц
Частота кадров : 46, 875 кадров/сек (1024 SPF)
Метод сжатия : С потерями
Размер потока : 182 Мбайт (1%)
Язык : Russian
Default : Нет
Alternate group : 1
Дата кодирования : UTC 2020-06-29 18: 45: 11
Дата пометки : UTC 2020-06-29 18: 57: 12
Fallback From : 7
tagc : public.auxiliary-content
Аудио #3
Идентификатор : 4
Формат : AAC LC
Формат/Информация : Advanced Audio Codec Low Complexity
Идентификатор кодека : mp4a-40-2
Продолжительность : 2 ч. 23 м.
Вид битрейта : Переменный
Битрейт : 177 Кбит/сек
Максимальный битрейт : 301 Кбит/сек
Каналы : 2 канала
Channel layout : L R
Частота : 48, 0 КГц
Частота кадров : 46, 875 кадров/сек (1024 SPF)
Метод сжатия : С потерями
Размер потока : 182 Мбайт (1%)
Язык : Russian
Default : Нет
Alternate group : 1
Дата кодирования : UTC 2020-06-29 18: 45: 11
Дата пометки : UTC 2020-06-29 18: 57: 12
Fallback From : 8
tagc : public.auxiliary-content
Аудио #4
Идентификатор : 5
Формат : AAC LC
Формат/Информация : Advanced Audio Codec Low Complexity
Идентификатор кодека : mp4a-40-2
Продолжительность : 2 ч. 23 м.
Вид битрейта : Переменный
Битрейт : 183 Кбит/сек
Максимальный битрейт : 312 Кбит/сек
Каналы : 2 канала
Channel layout : L R
Частота : 48, 0 КГц
Частота кадров : 46, 875 кадров/сек (1024 SPF)
Метод сжатия : С потерями
Размер потока : 188 Мбайт (1%)
Язык : English
Default : Нет
Alternate group : 1
Дата кодирования : UTC 2020-06-29 18: 45: 11
Дата пометки : UTC 2020-06-29 18: 57: 12
Fallback From : 9
tagc : public.main-program-content
Аудио #5
Идентификатор : 6
Формат : AC-3
Формат/Информация : Audio Coding 3
Коммерческое название : Dolby Digital
Идентификатор кодека : ac-3
Продолжительность : 2 ч. 23 м.
Вид битрейта : Постоянный
Битрейт : 448 Кбит/сек
Каналы : 6 каналов
Channel layout : L R C LFE Ls Rs
Частота : 48, 0 КГц
Частота кадров : 31, 250 кадров/сек (1536 SPF)
Метод сжатия : С потерями
Размер потока : 459 Мбайт (4%)
Язык : Russian
Service kind : Complete Main
Default : Inherited From: 2
Alternate group : 1
Дата кодирования : UTC 2020-06-29 18: 45: 11
Дата пометки : UTC 2020-06-29 18: 57: 12
Fallback To : 2
tagc : public.main-program-content
Аудио #6
Идентификатор : 7
Формат : AC-3
Формат/Информация : Audio Coding 3
Коммерческое название : Dolby Digital
Идентификатор кодека : ac-3
Продолжительность : 2 ч. 23 м.
Вид битрейта : Постоянный
Битрейт : 448 Кбит/сек
Каналы : 6 каналов
Channel layout : L R C LFE Ls Rs
Частота : 48, 0 КГц
Частота кадров : 31, 250 кадров/сек (1536 SPF)
Метод сжатия : С потерями
Размер потока : 460 Мбайт (4%)
Язык : Russian
Service kind : Complete Main
Default : Нет
Alternate group : 1
Дата кодирования : UTC 2020-06-29 18: 45: 11
Дата пометки : UTC 2020-06-29 18: 57: 12
Fallback To : 3
tagc : public.auxiliary-content
Аудио #7
Идентификатор : 8
Формат : AC-3
Формат/Информация : Audio Coding 3
Коммерческое название : Dolby Digital
Идентификатор кодека : ac-3
Продолжительность : 2 ч. 23 м.
Вид битрейта : Постоянный
Битрейт : 448 Кбит/сек
Каналы : 6 каналов
Channel layout : L R C LFE Ls Rs
Частота : 48, 0 КГц
Частота кадров : 31, 250 кадров/сек (1536 SPF)
Метод сжатия : С потерями
Размер потока : 460 Мбайт (4%)
Язык : Russian
Service kind : Complete Main
Default : Нет
Alternate group : 1
Дата кодирования : UTC 2020-06-29 18: 45: 11
Дата пометки : UTC 2020-06-29 18: 57: 12
Fallback To : 4
tagc : public.auxiliary-content
Аудио #8
Идентификатор : 9
Формат : AC-3
Формат/Информация : Audio Coding 3
Коммерческое название : Dolby Digital
Идентификатор кодека : ac-3
Продолжительность : 2 ч. 23 м.
Вид битрейта : Постоянный
Битрейт : 640 Кбит/сек
Каналы : 6 каналов
Channel layout : L R C LFE Ls Rs
Частота : 48, 0 КГц
Частота кадров : 31, 250 кадров/сек (1536 SPF)
Метод сжатия : С потерями
Размер потока : 656 Мбайт (5%)
Язык : English
Service kind : Complete Main
Default : Нет
Alternate group : 1
Дата кодирования : UTC 2020-06-29 18: 45: 11
Дата пометки : UTC 2020-06-29 18: 57: 12
Fallback To : 5
tagc : public.main-program-content
Текст #1
Идентификатор : 10
Формат : Timed Text
Режим смешивания : sbtl
Идентификатор кодека : tx3g
Продолжительность : 2 ч. 16 м.
Вид битрейта : Переменный
Битрейт : 52 бит/сек
Размер потока : 52, 2 Кбайт (0%)
Язык : Russian
Default : Да
Forced : Нет
Alternate group : 2
Дата кодирования : UTC 2020-06-29 18: 45: 11
Дата пометки : UTC 2020-06-29 18: 57: 12
tagc : public.main-program-content
Текст #2
Идентификатор : 11
Формат : Timed Text
Режим смешивания : sbtl
Идентификатор кодека : tx3g
Продолжительность : 2 ч. 13 м.
Вид битрейта : Переменный
Битрейт : 35 бит/сек
Размер потока : 34, 2 Кбайт (0%)
Язык : English
Default : Нет
Forced : Нет
Alternate group : 2
Дата кодирования : UTC 2020-06-29 18: 45: 11
Дата пометки : UTC 2020-06-29 18: 57: 12
tagc : public.main-program-content
Меню
Идентификатор : 12
Идентификатор кодека : text
Продолжительность : 2 ч. 23 м.
Язык : English
Дата кодирования : UTC 2020-06-29 18: 57: 12
Дата пометки : UTC 2020-06-29 18: 57: 12
Вид битрейта : CBR
Menu For : 1
00: 00: 00.000 : 00: 00: 00.000
00: 08: 48.361 : 00: 08: 48.361
00: 14: 25.656 : 00: 14: 25.656
00: 19: 36.967 : 00: 19: 36.967
00: 27: 52.588 : 00: 27: 52.588
00: 30: 51.725 : 00: 30: 51.725
00: 35: 39.763 : 00: 35: 39.763
00: 44: 27.081 : 00: 44: 27.081
00: 50: 00.748 : 00: 50: 00.748
00: 55: 53.100 : 00: 55: 53.100
01: 01: 16.673 : 01: 01: 16.673
01: 05: 07.278 : 01: 05: 07.278
01: 15: 23.477 : 01: 15: 23.477
01: 20: 17.646 : 01: 20: 17.646
01: 30: 06.568 : 01: 30: 06.568
01: 34: 32.083 : 01: 34: 32.083
01: 42: 55.336 : 01: 42: 55.336
01: 44: 58.042 : 01: 44: 58.042
01: 53: 13.495 : 01: 53: 13.495
01: 57: 24.496 : 01: 57: 24.496
01: 59: 28.495 : 01: 59: 28.495
02: 02: 09.030 : 02: 02: 09.030
02: 08: 44.717 : 02: 08: 44.717
02: 16: 04.156 : 02: 16: 04.156
Вид битрейта : Постоянный
Рейтинг →
 (голосов: 1, оценка 5/5, голосовать можно 1 раз )

Другие торренты по теме:

  • Вавилон / Babel (2006) BDRip [H.264 / 720p-LQ] [Hi10P] скачать через торрент бесплатно
  • Вавилон / Babel (2006) BDRip [H.265 / 1080p] [10-bit]
  • Вавилон / Babel (2006) BDRip [H.264 / 1080p]
  • Вавилон / Babel (2006) BDRip [H.264]


    • Комментарии (0):

      Информация

      Информация

        Посетители, находящиеся в группе Гости, не могут оставлять комментарии в данной новости.