Подписывайся на наш канал в Telegram https://t.me/torrentok и получи доступ к торрентам без ограничений!
.
Авторизация | Регистрация
torrent123.club

Аванпост (2019) BDRip [576p] iPad торрент скачать бесплатно

Дата: 30-06-2020, 05:00 | .torrent скачали: 0

Аванпост (2019) BDRip [576p] iPadПроизводство : Россия/1-2-3 Production, TNT-Premier, Канал ТВ-3
Жанр : Триллер, фантастика, боевик
Режиссер : Егор Баранов
Продюсер : Валерий Федорович, Евгений Никишов, Иван Голомовзюк
Актеры : Лукерья Ильяшенко, Пётр Фёдоров, Светлана Иванова, Алексей Чадов, Ксения Кутепова, Константин Лавроненко, Филипп Авдеев, Артем Маркарьян, Сергей Годин, Артем Ткаченко
Описание : В недалеком будущем что-то произошло. Связь с большей частью населенных пунктов Земли оборвалась. Космонавты передали с орбиты, что видят сверху небольшое пятно в Восточной Европе, по своим очертаниям напоминающее круг. То, что военные находят за границей этого круга, шокирует. В магазинах, в автомобилях, на дорогах, в зданиях больниц и вокзалов, повсюду — следы столкновений. Кто или что уничтожает все живое? И как долго продержится последний аванпост человечества?

Возраст: 16+ (зрителям, достигшим 16 лет)
Дата мировой премьеры: 22 ноября 2019
Дата российской премьеры: 21 ноября 2019, Каропрокат
Релиз от: Kosatka
Продолжительность : 02: 07: 30
Качество видео : BDRip 576p
Перевод: Не требуется (русский)Лицензия
Субтитры: Русские (Forced, Full), Английские (Full)
Видео: AVC/H.264, 1024x432, 2200 Kbps, 23.976 fps
Аудио 1 : AAC, 2.0 ch, 128 Kbps | Русский
Аудио 2 : AAC, 2.0 ch, 128 Kbps | Английский

Sort Name: Аванпост
XID: Apple: vendor_id: 2019-1108683
contentID: 1108683
Screenwriters: Илья Куликов
Producers: Валерий Федорович, Евгений Никишов, Иван Голомовзюк
Director: Егор Баранов
Cast: Лукерья Ильяшенко, Пётр Фёдоров, Светлана Иванова, Алексей Чадов, Ксения Кутепова, Константин Лавроненко, Филипп Авдеев, Артем Маркарьян, Сергей Годин, Артем Ткаченко
Studio: 1-2-3 Production, TNT-Premier, Канал ТВ-3
Rating: 135
Long Description: В недалеком будущем что-то произошло. Связь с большей частью населенных пунктов Земли оборвалась. Космонавты передали с орбиты, что видят сверху небольшое пятно в Восточной Европе, по своим очертаниям напоминающее круг. То, что военные находят за границей этого круга, шокирует. В магазинах, в автомобилях, на дорогах, в зданиях больниц и вокзалов, повсюду - следы столкновений. Кто или что уничтожает все живое? И как долго продержится последний аванпост человечества?
Description: В недалеком будущем что-то произошло. Связь с большей частью населенных пунктов Земли оборвалась. Космонавты передали с орбиты, что видят сверху небольшое пятно в Восточной Европе, по своим очертаниям напоминающее круг. То, что военные находят за границей этого круга, шокирует всех.
Release Date: 2019-11-22T08: 00: 00Z
Artist: Егор Баранов
Name: Аванпост

General
Complete name : /Users/imac/HandBrake/The.Blackout.(SD).(pk).m4v
Format : MPEG-4
Codec ID : M4V (M4V /M4A /mp42/isom)
File size : 2.19 GiB
Duration : 2h 7mn
Overall bit rate mode : Variable
Overall bit rate : 2 461 Kbps
Movie name : Аванпост
Performer : Егор Баранов
Director : Егор Баранов
Actor : Лукерья Ильяшенко/Пётр Фёдоров/Светлана Иванова/Алексей Чадов/Ксения Кутепова/Константин Лавроненко/Филипп Авдеев/Артем Маркарьян/Сергей Годин/Артем Ткаченко
Screenplay by : Илья Куликов
Producer : Валерий Федорович/Евгений Никишов/Иван Голомовзюк
Production studio : 1-2-3 Production, TNT-Premier, Канал ТВ-3
ContentType : Short Film
Description : В недалеком будущем что-то произошло. Связь с большей частью населенных пунктов Земли оборвалась. Космонавты передали с орбиты, что видят сверху небольшое пятно в Восточной Европе, по своим очертаниям напоминающее круг. То, что военные находят за границей этого круга, шокирует всех.
Recorded date : UTC 2019-11-22 08: 00: 00
Encoded date : UTC 2020-06-29 16: 54: 38
Tagged date : UTC 2020-06-29 17: 01: 39
Cover : Yes
Rating : None
Title/Sort : Аванпост
LongDescription : В недалеком будущем что-то произошло. Связь с большей частью населенных пунктов Земли оборвалась. Космонавты передали с орбиты, что видят сверху небольшое пятно в Восточной Европе, по своим очертаниям напоминающее круг. То, что военные находят за границей этого круга, шокирует. В магазинах, в автомобилях, на дорогах, в зданиях больниц и вокзалов, повсюду - следы столкновений. Кто или что уничтожает все живое? И как долго продержится последний аванпост человечества?
AppleStoreCatalogID : 1108683
Vendor : Apple: vendor_id: 2019-1108683
ContentRating : ru-movie|16+|375|
Video #1
ID : 1
Format : AVC
Format/Info : Advanced Video Codec
Format profile : High@L3.1
Format settings : CABAC/9 Ref Frames
Format settings, CABAC : Yes
Format settings, ReFrames : 9 frames
Codec ID : avc1
Codec ID/Info : Advanced Video Coding
Duration : 2h 7mn
Source duration : 2h 7mn
Bit rate : 2 200 Kbps
Width : 1 024 pixels
Height : 432 pixels
Display aspect ratio : 2.40: 1
Frame rate mode : Variable
Frame rate : 23.976 (24000/1001) fps
Minimum frame rate : 23.974 fps
Maximum frame rate : 23.981 fps
Color space : YUV
Chroma subsampling : 4: 2: 0
Bit depth : 8 bits
Scan type : Progressive
Bits/(Pixel*Frame) : 0.207
Stream size : 1.96 GiB (89%)
Source stream size : 1.96 GiB (89%)
Title : Main Program
Writing library : x264 core 157 r2935 545de2f
Encoding settings : cabac=1/ref=9/deblock=1: 0: 0/analyse=0x3: 0x113/me=umh/subme=9/psy=1/psy_rd=1.00: 0.00/mixed_ref=1/me_range=32/chroma_me=1/trellis=1/8x8dct=1/cqm=0/deadzone=21, 11/fast_pskip=1/chroma_qp_offset=-2/threads=13/lookahead_threads=1/sliced_threads=0/nr=0/decimate=1/interlaced=0/bluray_compat=0/constrained_intra=0/bframes=6/b_pyramid=2/b_adapt=2/b_bias=0/direct=1/weightb=1/open_gop=0/weightp=2/keyint=240/keyint_min=24/scenecut=40/intra_refresh=0/rc_lookahead=40/rc=2pass/mbtree=1/bitrate=2200/ratetol=1.0/qcomp=0.60/qpmin=0/qpmax=69/qpstep=4/cplxblur=20.0/qblur=0.5/ip_ratio=1.40/aq=1: 1.00
Language : Russian
Encoded date : UTC 2020-06-29 16: 54: 38
Tagged date : UTC 2020-06-29 16: 54: 42
Color range : Limited
Color primaries : BT.709
Transfer characteristics : BT.709
Matrix coefficients : BT.709
Menus : 7, 8
Codec configuration box : avcC
Video #2
ID : 8
Format : JPEG
Codec ID : jpeg
Duration : 2h 7mn
Bit rate mode : Variable
Bit rate : 556 bps
Width : 640 pixels
Height : 270 pixels
Display aspect ratio : 2.40: 1
Frame rate mode : Variable
Frame rate : 0.002 fps
Minimum frame rate : 0.001 fps
Maximum frame rate : 0.005 fps
Color space : YUV
Chroma subsampling : 4: 2: 0
Bit depth : 8 bits
Compression mode : Lossy
Bits/(Pixel*Frame) : 1.609
Stream size : 408 KiB (0%)
Title : Chapter Images
Language : Russian
Default : No
Encoded date : UTC 2020-06-29 16: 54: 48
Tagged date : UTC 2020-06-29 16: 54: 48
Menu For : 1
ColorSpace_ICC : RGB
Audio #1
ID : 2
Format : AAC LC
Format/Info : Advanced Audio Codec Low Complexity
Codec ID : mp4a-40-2
Duration : 2h 7mn
Source duration : 2h 7mn
Bit rate mode : Variable
Bit rate : 126 Kbps
Maximum bit rate : 213 Kbps
Channel(s) : 2 channels
Channel layout : L R
Sampling rate : 48.0 KHz
Frame rate : 46.875 fps (1024 SPF)
Compression mode : Lossy
Stream size : 115 MiB (5%)
Source stream size : 115 MiB (5%)
Title : Russian Stereo
Language : Russian
Default : Yes
Alternate group : 1
Encoded date : UTC 2020-06-29 16: 54: 38
Tagged date : UTC 2020-06-29 16: 54: 45
Subtitles : 4, 5
Audio #2
ID : 3
Format : AAC LC
Format/Info : Advanced Audio Codec Low Complexity
Codec ID : mp4a-40-2
Duration : 2h 7mn
Source duration : 2h 7mn
Bit rate mode : Variable
Bit rate : 126 Kbps
Maximum bit rate : 196 Kbps
Channel(s) : 2 channels
Channel layout : L R
Sampling rate : 48.0 KHz
Frame rate : 46.875 fps (1024 SPF)
Compression mode : Lossy
Stream size : 115 MiB (5%)
Source stream size : 115 MiB (5%)
Title : English Stereo
Language : English
Default : No
Alternate group : 1
Encoded date : UTC 2020-06-29 16: 54: 38
Tagged date : UTC 2020-06-29 16: 54: 45
Text #1
ID : 4
Format : Timed Text
Muxing mode : sbtl
Codec ID : tx3g
Duration : 43mn 18s
Bit rate mode : Variable
Bit rate : 3 bps
Stream size : 903 Bytes (0%)
Title : Russian forced
Language : Russian
Default : Yes
Forced : Yes
Alternate group : 2
Encoded date : UTC 2020-06-29 16: 54: 38
Tagged date : UTC 2020-06-29 16: 54: 38
Subtitles For : 2
Full Alternative : 5
Text #2
ID : 5
Format : Timed Text
Muxing mode : sbtl
Codec ID : tx3g
Duration : 2h 7mn
Bit rate mode : Variable
Bit rate : 77 bps
Stream size : 71.7 KiB (0%)
Title : Russian full (Enigma)
Language : Russian
Default : No
Forced : No
Alternate group : 2
Encoded date : UTC 2020-06-29 16: 54: 38
Tagged date : UTC 2020-06-29 16: 54: 38
Subtitles For : 2
Forced Alternative : 4
Text #3
ID : 6
Format : Timed Text
Muxing mode : sbtl
Codec ID : tx3g
Duration : 2h 2mn
Bit rate mode : Variable
Bit rate : 48 bps
Stream size : 42.9 KiB (0%)
Title : English full
Language : English
Default : No
Forced : No
Alternate group : 2
Encoded date : UTC 2020-06-29 16: 54: 38
Tagged date : UTC 2020-06-29 16: 54: 38
Menu #1
00: 00: 00.000 : Chapter 1
00: 09: 30.361 : Chapter 2
00: 19: 34.465 : Chapter 3
00: 29: 52.749 : Chapter 4
00: 40: 16.623 : Chapter 5
00: 50: 11.342 : Chapter 6
01: 01: 00.073 : Chapter 7
01: 10: 54.959 : Chapter 8
01: 22: 56.513 : Chapter 9
01: 34: 43.553 : Chapter 10
01: 46: 17.413 : Chapter 11
02: 04: 02.809 : Chapter 12
Menu #2
ID : 7
Codec ID : text
Duration : 2h 7mn
Language : Russian
Encoded date : UTC 2020-06-29 16: 54: 45
Tagged date : UTC 2020-06-29 16: 54: 45
Menu For : 1
00: 00: 00.000 : Chapter 1
00: 09: 30.361 : Chapter 2
00: 19: 34.465 : Chapter 3
00: 29: 52.749 : Chapter 4
00: 40: 16.623 : Chapter 5
00: 50: 11.342 : Chapter 6
01: 01: 00.073 : Chapter 7
01: 10: 54.959 : Chapter 8
01: 22: 56.513 : Chapter 9
01: 34: 43.553 : Chapter 10
01: 46: 17.413 : Chapter 11
02: 04: 02.809 : Chapter 12

x264 info: frame I: 1895 Avg QP: 12.27 size: 81868
x264 info: frame P: 44725 Avg QP: 15.24 size: 23664
x264 info: frame B: 136789 Avg QP: 17.31 size: 6507
x264 info: consecutive B-frames: 4.6% 4.3% 10.1% 17.1% 18.1% 37.2% 8.6%
x264 info: mb I I16..4: 10.3% 66.3% 23.4%
x264 info: mb P I16..4: 2.3% 8.7% 2.4% P16..4: 34.7% 26.7% 16.2% 0.0% 0.0% skip: 9.1%
x264 info: mb B I16..4: 0.2% 0.8% 0.2% B16..8: 39.9% 12.0% 3.2% direct: 4.6% skip: 39.2% L0: 45.3% L1: 43.3% BI: 11.3%
x264 info: 8x8 transform intra: 65.4% inter: 69.5%
x264 info: coded y, uvDC, uvAC intra: 80.0% 87.5% 73.7% inter: 25.7% 27.6% 9.2%
x264 info: i16 v, h, dc, p: 30% 13% 8% 49%
x264 info: i8 v, h, dc, ddl, ddr, vr, hd, vl, hu: 9% 9% 7% 10% 14% 13% 14% 12% 14%
x264 info: i4 v, h, dc, ddl, ddr, vr, hd, vl, hu: 9% 8% 4% 10% 15% 14% 15% 11% 14%
x264 info: i8c dc, h, v, p: 44% 22% 17% 17%
x264 info: Weighted P-Frames: Y: 6.5% UV: 4.7%
x264 info: ref P L0: 50.6% 9.9% 15.6% 7.0% 5.2% 3.9% 3.3% 2.1% 2.0% 0.3% 0.0%
x264 info: ref B L0: 72.7% 12.6% 6.3% 3.1% 2.2% 1.7% 1.1% 0.3%
x264 info: ref B L1: 93.7% 6.3%
x264 info: kb/s: 2199.96
Скриншоты :


Все одноименные релизы в Клубе
Время раздачи: 24/7 (круглосуточно)


Релиз подготовлен для просмотра наApple TV, iPad, iPhone, iPod Touch.
Для просмотра данного релиза на компьютере с ОС Windows рекомендуется использоватьVLC media player
Рейтинг →
 (голосов: 1, оценка 3/5, голосовать можно 1 раз )

Другие торренты по теме:

  • Аванпост (2019) BDRip [H.264 / 720p] [PR]
  • Аванпост (2019) BDRip [H.264 / 1080p] [PR]
  • Аванпост (2019) BDRip [H.265 / 1080p] [10-bit]
  • Аванпост (2019) BDRip [H.264 / 1080p-LQ]
  • Аванпост (2019) BDRip [H.264 / 720p]
  • Аванпост (2019) BDRip [H.264 / 720p]
  • Аванпост (2019) BDRip [H.264 / 720p / LQ]
  • Аванпост (2019) BDRip [H.264 / 1080p]


    • Комментарии (0):

      Информация

      Информация

        Посетители, находящиеся в группе Гости, не могут оставлять комментарии в данной новости.