Подписывайся на наш канал в Telegram https://t.me/torrentok и получи доступ к торрентам без ограничений!
.
Авторизация | Регистрация
torrent123.club


Миллиард (2019) WEBRip [576p] iPad торрент скачать бесплатно

Дата: 1-07-2020, 05:00 | .torrent скачали: 0

Миллиард (2019) WEBRip [576p] iPadПроизводство : Россия, RSS Production
Жанр : Комедия, боевик
Режиссер : Роман Прыгунов
Продюсер : Владимир Маслов, Вадим Верещагин, Бинке Анисимов
Актеры : Владимир Машков, Александра Бортич, Гела Месхи, Павел Чинарёв, Марина Петренко, Мария Миронова, Даниил Спиваковский, Григорий Калинин, Федор Бавтриков, Дмитрий Астрахан
Описание : Влиятельный банкир делает всё возможное, чтобы не делиться имуществом со своими незаконнорожденными сыновьями. Но когда его лишают всех денег, выясняется, что помочь Матвею могут только они… Чтобы вернуть себе состояние, миллиардер будет вынужден пойти на ограбление собственного банка в Монте-Карло. А для этого ему придётся выполнить ещё более сложную задачу: вернуть доверие выросших без отца детей…

Возраст: 12+ (зрителям, достигшим 12 лет)
Дата мировой премьеры: 19 апреля 2019
Дата российской премьеры: 18 апреля 2019, Централ Партнершип
Цифровой релиз: 1 июля 2019, Централ Партнершип
Релиз от: Kosatka
Продолжительность : 01: 36: 46
Качество видео : WEBRip 576p
Перевод: (Не требуется)
Субтитры: Нет
Видео: AVC/H.264, 1024x432, 2200 Kbps, 25.000 fps
Аудио : AAC, 2.0 ch, 128 Kbps | Русский

Sort Name: Миллиард
XID: Apple: vendor_id: 2019-1097478
contentID: 1462108947
Copyright: © 2019, Централ Партнершип
Screenwriters: Андрей Золотарев
Producers: Владимир Маслов, Вадим Верещагин, Бинке Анисимов
Director: Роман Прыгунов
Cast: Владимир Машков, Александра Бортич, Гела Месхи, Павел Чинарёв, Марина Петренко, Мария Миронова, Даниил Спиваковский, Григорий Калинин, Федор Бавтриков, Дмитрий Астрахан и др.
Studio: RSS Production
Rating: 134
Long Description: Влиятельный банкир делает всё возможное, чтобы не делиться имуществом со своими незаконнорожденными сыновьями. Но когда его лишают всех денег, выясняется, что помочь Матвею могут только они… Чтобы вернуть себе состояние, миллиардер будет вынужден пойти на ограбление собственного банка в Монте-Карло. А для этого ему придётся выполнить ещё более сложную задачу: вернуть доверие выросших без отца детей…
Description: Влиятельный банкир делает всё возможное, чтобы не делиться имуществом со своими незаконнорожденными сыновьями. Но когда его лишают всех денег, выясняется, что помочь Матвею могут только они…
Release Date: 2019-04-18T07: 00: 00Z
Genre: Комедии
Artist: Роман Прыгунов
Name: Миллиард

General
Complete name : /Users/imac/HandBrake/Milliard.(SD).(pk).m4v
Format : MPEG-4
Codec ID : M4V (M4V /M4A /mp42/isom)
File size : 1.58 GiB
Duration : 1h 36mn
Overall bit rate mode : Variable
Overall bit rate : 2 332 Kbps
Movie name : Миллиард
Performer : Роман Прыгунов
Director : Роман Прыгунов
Actor : Владимир Машков/Александра Бортич/Гела Месхи/Павел Чинарёв/Марина Петренко/Мария Миронова/Даниил Спиваковский/Григорий Калинин/Федор Бавтриков/Дмитрий Астрахан и др.
Screenplay by : Андрей Золотарев
Producer : Владимир Маслов/Вадим Верещагин/Бинке Анисимов
Production studio : RSS Production
Genre : Комедии
ContentType : Short Film
Description : Влиятельный банкир делает всё возможное, чтобы не делиться имуществом со своими незаконнорожденными сыновьями. Но когда его лишают всех денег, выясняется, что помочь Матвею могут только они…
Recorded date : UTC 2019-04-18 07: 00: 00
Encoded date : UTC 2020-06-30 17: 10: 50
Tagged date : UTC 2020-06-30 17: 11: 24
Copyright : © 2019, Централ Партнершип
Cover : Yes
Rating : None
Title/Sort : Миллиард
LongDescription : Влиятельный банкир делает всё возможное, чтобы не делиться имуществом со своими незаконнорожденными сыновьями. Но когда его лишают всех денег, выясняется, что помочь Матвею могут только они… Чтобы вернуть себе состояние, миллиардер будет вынужден пойти на ограбление собственного банка в Монте-Карло. А для этого ему придётся выполнить ещё более сложную задачу: вернуть доверие выросших без отца детей…
AppleStoreCatalogID : 1462108947
Vendor : Apple: vendor_id: 2019-1097478
ContentRating : ru-movie|12+|200|
Video #1
ID : 1
Format : AVC
Format/Info : Advanced Video Codec
Format profile : High@L3.1
Format settings : CABAC/9 Ref Frames
Format settings, CABAC : Yes
Format settings, ReFrames : 9 frames
Codec ID : avc1
Codec ID/Info : Advanced Video Coding
Duration : 1h 36mn
Bit rate : 2 200 Kbps
Width : 1 024 pixels
Height : 432 pixels
Display aspect ratio : 2.40: 1
Frame rate mode : Variable
Frame rate : 25.000 fps
Minimum frame rate : 18.692 fps
Maximum frame rate : 26.132 fps
Color space : YUV
Chroma subsampling : 4: 2: 0
Bit depth : 8 bits
Scan type : Progressive
Bits/(Pixel*Frame) : 0.209
Stream size : 1.49 GiB (94%)
Title : Main Program
Writing library : x264 core 157 r2935 545de2f
Encoding settings : cabac=1/ref=9/deblock=1: 0: 0/analyse=0x3: 0x113/me=umh/subme=9/psy=1/psy_rd=1.00: 0.00/mixed_ref=1/me_range=32/chroma_me=1/trellis=1/8x8dct=1/cqm=0/deadzone=21, 11/fast_pskip=1/chroma_qp_offset=-2/threads=13/lookahead_threads=1/sliced_threads=0/nr=0/decimate=1/interlaced=0/bluray_compat=0/constrained_intra=0/bframes=6/b_pyramid=2/b_adapt=2/b_bias=0/direct=1/weightb=1/open_gop=0/weightp=2/keyint=240/keyint_min=24/scenecut=40/intra_refresh=0/rc_lookahead=40/rc=2pass/mbtree=1/bitrate=2200/ratetol=1.0/qcomp=0.60/qpmin=0/qpmax=69/qpstep=4/cplxblur=20.0/qblur=0.5/ip_ratio=1.40/aq=1: 1.00
Language : Russian
Encoded date : UTC 2020-06-30 17: 10: 50
Tagged date : UTC 2020-06-30 17: 10: 53
Color range : Limited
Color primaries : BT.709
Transfer characteristics : BT.709
Matrix coefficients : BT.709
Menus : 3, 4
Codec configuration box : avcC
Video #2
ID : 4
Format : JPEG
Codec ID : jpeg
Duration : 1h 36mn
Bit rate mode : Variable
Bit rate : 759 bps
Width : 640 pixels
Height : 270 pixels
Display aspect ratio : 2.40: 1
Frame rate mode : Variable
Frame rate : 0.002 fps
Minimum frame rate : 0.002 fps
Maximum frame rate : 0.003 fps
Color space : YUV
Chroma subsampling : 4: 2: 0
Bit depth : 8 bits
Compression mode : Lossy
Bits/(Pixel*Frame) : 2.196
Stream size : 649 KiB (0%)
Title : Chapter Images
Language : Russian
Default : No
Encoded date : UTC 2020-06-30 17: 10: 58
Tagged date : UTC 2020-06-30 17: 10: 58
Menu For : 1
ColorSpace_ICC : RGB
Audio
ID : 2
Format : AAC LC
Format/Info : Advanced Audio Codec Low Complexity
Codec ID : mp4a-40-2
Duration : 1h 36mn
Source duration : 1h 36mn
Bit rate mode : Variable
Bit rate : 126 Kbps
Maximum bit rate : 212 Kbps
Channel(s) : 2 channels
Channel layout : L R
Sampling rate : 48.0 KHz
Frame rate : 46.875 fps (1024 SPF)
Compression mode : Lossy
Stream size : 87.1 MiB (5%)
Source stream size : 87.1 MiB (5%)
Title : Russian Stereo
Language : Russian
Default : Yes
Alternate group : 1
Encoded date : UTC 2020-06-30 17: 10: 50
Tagged date : UTC 2020-06-30 17: 10: 55
Menu #1
00: 00: 00.000 : 1
00: 06: 13.080 : 2
00: 12: 46.280 : 3
00: 19: 14.520 : 4
00: 25: 43.480 : 5
00: 32: 31.920 : 6
00: 39: 28.440 : 7
00: 44: 57.120 : 8
00: 52: 20.360 : 9
00: 58: 54.640 : 10
01: 05: 46.840 : 11
01: 12: 42.520 : 12
01: 20: 22.040 : 13
01: 27: 17.080 : 14
Menu #2
ID : 3
Codec ID : text
Duration : 1h 36mn
Language : Russian
Encoded date : UTC 2020-06-30 17: 10: 55
Tagged date : UTC 2020-06-30 17: 10: 55
Menu For : 1
00: 00: 00.000 : 1
00: 06: 13.080 : 2
00: 12: 46.280 : 3
00: 19: 14.520 : 4
00: 25: 43.480 : 5
00: 32: 31.920 : 6
00: 39: 28.440 : 7
00: 44: 57.120 : 8
00: 52: 20.360 : 9
00: 58: 54.640 : 10
01: 05: 46.840 : 11
01: 12: 42.520 : 12
01: 20: 22.040 : 13
01: 27: 17.080 : 14

x264 info: frame I: 1834 Avg QP: 11.66 size: 81991
x264 info: frame P: 37361 Avg QP: 14.56 size: 22734
x264 info: frame B: 99162 Avg QP: 16.71 size: 6021
x264 info: consecutive B-frames: 3.2% 5.7% 10.9% 58.0% 14.5% 6.1% 1.6%
x264 info: mb I I16..4: 8.1% 61.2% 30.7%
x264 info: mb P I16..4: 1.0% 6.7% 2.3% P16..4: 31.8% 28.5% 18.9% 0.0% 0.0% skip: 10.8%
x264 info: mb B I16..4: 0.1% 0.7% 0.3% B16..8: 31.6% 11.9% 3.8% direct: 5.1% skip: 46.7% L0: 40.6% L1: 43.4% BI: 16.0%
x264 info: 8x8 transform intra: 65.0% inter: 63.4%
x264 info: coded y, uvDC, uvAC intra: 88.5% 90.9% 79.5% inter: 25.5% 24.0% 7.2%
x264 info: i16 v, h, dc, p: 31% 15% 7% 47%
x264 info: i8 v, h, dc, ddl, ddr, vr, hd, vl, hu: 16% 12% 7% 8% 10% 12% 11% 11% 12%
x264 info: i4 v, h, dc, ddl, ddr, vr, hd, vl, hu: 16% 12% 4% 8% 13% 13% 12% 11% 12%
x264 info: i8c dc, h, v, p: 43% 23% 22% 13%
x264 info: Weighted P-Frames: Y: 2.1% UV: 0.9%
x264 info: ref P L0: 56.0% 8.6% 15.6% 6.0% 4.6% 3.3% 2.8% 1.6% 1.6% 0.1% 0.0%
x264 info: ref B L0: 77.8% 10.6% 5.0% 2.4% 1.7% 1.3% 0.9% 0.3%
x264 info: ref B L1: 96.3% 3.7%
x264 info: kb/s: 2200.29
Скриншоты :


Все одноименные релизы в Клубе
Время раздачи: 24/7 (круглосуточно)


Релиз подготовлен для просмотра наApple TV, iPad, iPhone, iPod Touch.
Для просмотра данного релиза на компьютере с ОС Windows рекомендуется использоватьVLC media player
Рейтинг →
 (голосов: 1, оценка 3/5, голосовать можно 1 раз )

Другие торренты по теме:

  • Миллиард (2019) WEBRip [H.264 / 720p-LQ]
  • Миллиард (2019) WEBRip [H.265] [10-bit]


    • Комментарии (0):

      Информация

      Информация

        Посетители, находящиеся в группе Гости, не могут оставлять комментарии в данной новости.