Подписывайся на наш канал в Telegram https://t.me/torrentok и получи доступ к торрентам без ограничений!
.
Авторизация | Регистрация
torrent123.club


Начало / Inception (2010) BDRip [1080p] ATV3 торрент скачать бесплатно

Дата: 1-07-2020, 05:00 | .torrent скачали: 0

Начало / Inception (2010) BDRip [1080p] ATV3Производство: США, Великобритания/Legendary Pictures, Syncopy, Warner Bros
Жанр: Фантастика, боевик, триллер, драма, детектив
Режиссер: Кристофер Нолан
Продюсер: Кристофер Нолан, Эмма Томас, Закария Алауи
Актеры: Леонардо ДиКаприо, Джозеф Гордон-Левитт, Эллен Пейдж, Том Харди, Кен Ватанабэ, Дилип Рао, Киллиан Мёрфи, Том Беренджер, Марион Котийяр, Пит Постлетуэйт

Описание

Кобб — талантливый вор, лучший из лучших в опасном искусстве извлечения: он крадет ценные секреты из глубин подсознания во время сна, когда человеческий разум наиболее уязвим. Редкие способности Кобба сделали его ценным игроком в привычном к предательству мире промышленного шпионажа, но они же превратили его в извечного беглеца и лишили всего, что он когда-либо любил.
И вот у Кобба появляется шанс исправить ошибки. Его последнее дело может вернуть все назад, но для этого ему нужно совершить невозможное — инициацию. Вместо идеальной кражи Кобб и его команда спецов должны будут провернуть обратное. Теперь их задача — не украсть идею, а внедрить ее. Если у них получится, это и станет идеальным преступлением.
Но никакое планирование или мастерство не могут подготовить команду к встрече с опасным противником, который, кажется, предугадывает каждый их ход. Врагом, увидеть которого мог бы лишь Кобб.

Возраст: 12+ (зрителям, достигшим 12 лет)
Рейтинг MPAA: PG-13 (детям до 13 лет просмотр нежелателен)
Продолжительность: 02: 28: 07
Качество видео: BDRip 1080р
Перевод: Дублированный, профессиональный двухголосый, авторский одноголосый
Субтитры: Русские (forced, full, SDH), английские (full, full, SDH)
Видео : H.264, 1920x800 (2.40: 1), ~ 6685 kbps, 23.976 fps
Аудио#1 : AAC, 2.0 ch, 197 Kbps - Русский DUB, Лицензия CEE
Аудио#2 : AAC, 2.0 ch, 196 Kbps - Русский DVO, Кубик в Кубе
Аудио#3 : AAC, 2.0 ch, 197 Kbps - Русский DVO, BBC Saint-Petersburg
Аудио#4 : AAC, 2.0 ch, 197 Kbps - Русский AVO, Ю. Гаврилов
Аудио#5 : AAC, 2.0 ch, 196 Kbps - Русский AVO, Ю. Сербин
Аудио#6 : AAC, 2.0 ch, 197 Kbps - Український DUB, Лицензия CEE
Аудио#7 : AAC, 2.0 ch, 197 Kbps - English Original
Аудио#8 : AC3, 6.0 ch, 640 Kbps - Русский DUB, Лицензия CEE
Аудио#9 : AC3, 6.0 ch, 640 Kbps - Русский DVO, Кубик в Кубе
Аудио#10 : AC3, 6.0 ch, 640 Kbps - Русский DVO, BBC Saint-Petersburg
Аудио#11 : AC3, 6.0 ch, 640 Kbps - Русский AVO, Ю. Гаврилов
Аудио#12 : AC3, 6.0 ch, 640 Kbps - Русский AVO, Ю. Сербин
Аудио#13 : AC3, 6.0 ch, 640 Kbps - Український DUB, Лицензия CEE
Аудио#14 : AC3, 6.0 ch, 640 Kbps - English Original
Общее
Полное имя : /Users/Dropbox/Inception.2010.BDRip.1080р.NNMClub.m4v
Формат : MPEG-4
Идентификатор кодека : M4V (M4V /M4A /mp42/isom)
Размер файла : 13, 0 Гбайт
Продолжительность : 2 ч. 28 м.
Режим общего битрейта : Переменный
Общий поток : 12, 6 Мбит/сек
Название фильма : Начало
Исполнитель : Unknown
Режиссёр : Unknown
Исполнитель : Leonardo DiCaprio/Ken Watanabe/Joseph Gordon-Levitt/Marion Cotillard/Ellen Page/Tom Hardy/Cillian Murphy/Tom Berenger/Michael Caine
Сценарист : Christopher Nolan
Продюсер : Emma Thomas
Студия-производитель : Warner Bros.
Жанр : Боевики и приключения
Тип содержимого : Short Film
Дата записи : UTC 2010-07-06 07: 00: 00
Дата кодирования : UTC 2020-06-30 07: 26: 45
Дата пометки : UTC 2020-06-30 07: 38: 50
Авторское право : © 2010 Warner Bros. Entertainment Inc. and Legendary Pictures.
Обложка : Yes
LongDescription : Ваш разум – это место преступления. Кассовая суперзвезда Леонардо Ди Каприо играет в этом современном научно- фантастическом боевике в рамках архитектуры разума. Написаный, режиссером и продюсером, Оскароносцем и победителем Золотого глобуса, Кристофером Ноланом (Темный Рыцарь, Бэтмэн: Начало , Престиж), этот долгожданный миллиардно долларовый блокбастер является еще одной фантастической историей от выдающегося режиссера, который постоянно поднимает планку с каждым новым своим фильмом. Снимая в Лондоне, Париже, Танжере, Калгари и Лос-Анджелесе, в этом психоделическом фильме Нолан также задействует призеров Киноакадемии, Майкла Кейна и Марион Котияр, и Юнону Эллен Пейдж, Киллиан Мерфи из Бэтмен: Начало, номинантов на Оскар, Кена Ватанабе ( Последний Самурай) и Тома Беренджера (Взвод).
AppleStoreCountry : Russia
AppleStoreCatalogID : 528188765
ContentRating : ru-movie|12+|200|
Видео #1
Идентификатор : 1
Формат : AVC
Формат/Информация : Advanced Video Codec
Профиль формата : High@L4.1
Настройки формата : CABAC/5 Ref Frames
Параметр CABAC формата : Да
Параметр ReFrames формата : 5 кадров
Идентификатор кодека : avc1
Идентификатор кодека/Информация : Advanced Video Coding
Продолжительность : 2 ч. 28 м.
Битрейт : 6 685 Кбит/сек
Ширина : 1 920 пикселей
Высота : 800 пикселей
Соотношение сторон : 2, 40: 1
Режим частоты кадров : Переменный
Частота кадров : 23, 976 (24000/1001) кадра/сек
Минимальная частота кадров : 23, 810 кадра/сек
Максимальная частота кадров : 24, 390 кадра/сек
Цветовое пространство : YUV
Субдискретизация насыщенности : 4: 2: 0
Битовая глубина : 8 бит
Тип развёртки : Прогрессивная
Бит/(Пиксели*Кадры) : 0.182
Размер потока : 6, 92 Гбайт (53%)
Библиотека кодирования : x264 core 138 r2358 9e941d1
Настройки программы : cabac=1/ref=5/deblock=1: -3: -3/analyse=0x3: 0x133/me=umh/subme=11/psy=1/psy_rd=1.00: 0.15/mixed_ref=1/me_range=32/chroma_me=1/trellis=2/8x8dct=1/cqm=0/deadzone=21, 11/fast_pskip=0/chroma_qp_offset=-3/threads=6/lookahead_threads=1/sliced_threads=0/nr=0/decimate=1/interlaced=0/bluray_compat=0/constrained_intra=0/bframes=8/b_pyramid=2/b_adapt=2/b_bias=0/direct=3/weightb=1/open_gop=0/weightp=2/keyint=240/keyint_min=23/scenecut=40/intra_refresh=0/rc_lookahead=40/rc=2pass/mbtree=1/bitrate=6685/ratetol=1.0/qcomp=0.60/qpmin=0/qpmax=69/qpstep=4/cplxblur=20.0/qblur=0.5/ip_ratio=1.40/aq=2: 0.90
Язык : English
Дата кодирования : UTC 2020-06-30 07: 26: 45
Дата пометки : UTC 2020-06-30 07: 38: 33
Menus : 23, 24
Codec configuration box : avcC
Видео #2
Идентификатор : 24
Формат : JPEG
Идентификатор кодека : jpeg
Продолжительность : 2 ч. 28 м.
Вид битрейта : Переменный
Битрейт : 269 бит/сек
Ширина : 640 пикселей
Высота : 266 пикселей
Соотношение сторон : 2, 40: 1
Режим частоты кадров : Постоянный
Частота кадров : 0, 001 кадр/сек
Цветовое пространство : YUV
Субдискретизация насыщенности : 4: 2: 0
Битовая глубина : 8 бит
Метод сжатия : С потерями
Бит/(Пиксели*Кадры) : 1.580
Размер потока : 493 Кбайт (0%)
Язык : English
Default : Нет
Дата кодирования : UTC 2020-06-30 07: 38: 48
Дата пометки : UTC 2020-06-30 07: 38: 48
Menu For : 1
ColorSpace_ICC : RGB
Аудио #1
Идентификатор : 2
Формат : AAC LC
Формат/Информация : Advanced Audio Codec Low Complexity
Идентификатор кодека : mp4a-40-2
Продолжительность : 2 ч. 28 м.
Вид битрейта : Переменный
Битрейт : 197 Кбит/сек
Максимальный битрейт : 331 Кбит/сек
Каналы : 2 канала
Channel layout : L R
Частота : 48, 0 КГц
Частота кадров : 46, 875 кадров/сек (1024 SPF)
Метод сжатия : С потерями
Размер потока : 209 Мбайт (2%)
Язык : Russian
Default : Да
Alternate group : 1
Дата кодирования : UTC 2020-06-30 07: 26: 45
Дата пометки : UTC 2020-06-30 07: 38: 33
Fallback From : 9
tagc : public.main-program-content
Аудио #2
Идентификатор : 3
Формат : AAC LC
Формат/Информация : Advanced Audio Codec Low Complexity
Идентификатор кодека : mp4a-40-2
Продолжительность : 2 ч. 28 м.
Вид битрейта : Переменный
Битрейт : 196 Кбит/сек
Максимальный битрейт : 341 Кбит/сек
Каналы : 2 канала
Channel layout : L R
Частота : 48, 0 КГц
Частота кадров : 46, 875 кадров/сек (1024 SPF)
Метод сжатия : С потерями
Размер потока : 208 Мбайт (2%)
Язык : Russian
Default : Нет
Alternate group : 1
Дата кодирования : UTC 2020-06-30 07: 26: 45
Дата пометки : UTC 2020-06-30 07: 38: 33
Fallback From : 10
tagc : public.auxiliary-content
Аудио #3
Идентификатор : 4
Формат : AAC LC
Формат/Информация : Advanced Audio Codec Low Complexity
Идентификатор кодека : mp4a-40-2
Продолжительность : 2 ч. 28 м.
Вид битрейта : Переменный
Битрейт : 197 Кбит/сек
Максимальный битрейт : 340 Кбит/сек
Каналы : 2 канала
Channel layout : L R
Частота : 48, 0 КГц
Частота кадров : 46, 875 кадров/сек (1024 SPF)
Метод сжатия : С потерями
Размер потока : 208 Мбайт (2%)
Язык : Russian
Default : Нет
Alternate group : 1
Дата кодирования : UTC 2020-06-30 07: 26: 45
Дата пометки : UTC 2020-06-30 07: 38: 33
Fallback From : 11
tagc : public.auxiliary-content
Аудио #4
Идентификатор : 5
Формат : AAC LC
Формат/Информация : Advanced Audio Codec Low Complexity
Идентификатор кодека : mp4a-40-2
Продолжительность : 2 ч. 28 м.
Вид битрейта : Переменный
Битрейт : 197 Кбит/сек
Максимальный битрейт : 338 Кбит/сек
Каналы : 2 канала
Channel layout : L R
Частота : 48, 0 КГц
Частота кадров : 46, 875 кадров/сек (1024 SPF)
Метод сжатия : С потерями
Размер потока : 208 Мбайт (2%)
Язык : Russian
Default : Нет
Alternate group : 1
Дата кодирования : UTC 2020-06-30 07: 26: 45
Дата пометки : UTC 2020-06-30 07: 38: 33
Fallback From : 12
tagc : public.auxiliary-content
Аудио #5
Идентификатор : 6
Формат : AAC LC
Формат/Информация : Advanced Audio Codec Low Complexity
Идентификатор кодека : mp4a-40-2
Продолжительность : 2 ч. 28 м.
Вид битрейта : Переменный
Битрейт : 196 Кбит/сек
Максимальный битрейт : 342 Кбит/сек
Каналы : 2 канала
Channel layout : L R
Частота : 48, 0 КГц
Частота кадров : 46, 875 кадров/сек (1024 SPF)
Метод сжатия : С потерями
Размер потока : 208 Мбайт (2%)
Язык : Russian
Default : Нет
Alternate group : 1
Дата кодирования : UTC 2020-06-30 07: 26: 45
Дата пометки : UTC 2020-06-30 07: 38: 33
Fallback From : 13
tagc : public.auxiliary-content
Аудио #6
Идентификатор : 7
Формат : AAC LC
Формат/Информация : Advanced Audio Codec Low Complexity
Идентификатор кодека : mp4a-40-2
Продолжительность : 2 ч. 28 м.
Вид битрейта : Переменный
Битрейт : 197 Кбит/сек
Максимальный битрейт : 325 Кбит/сек
Каналы : 2 канала
Channel layout : L R
Частота : 48, 0 КГц
Частота кадров : 46, 875 кадров/сек (1024 SPF)
Метод сжатия : С потерями
Размер потока : 209 Мбайт (2%)
Язык : Ukrainian
Default : Нет
Alternate group : 1
Дата кодирования : UTC 2020-06-30 07: 26: 45
Дата пометки : UTC 2020-06-30 07: 38: 33
Fallback From : 14
tagc : public.main-program-content
Аудио #7
Идентификатор : 8
Формат : AAC LC
Формат/Информация : Advanced Audio Codec Low Complexity
Идентификатор кодека : mp4a-40-2
Продолжительность : 2 ч. 28 м.
Вид битрейта : Переменный
Битрейт : 197 Кбит/сек
Максимальный битрейт : 332 Кбит/сек
Каналы : 2 канала
Channel layout : L R
Частота : 48, 0 КГц
Частота кадров : 46, 875 кадров/сек (1024 SPF)
Метод сжатия : С потерями
Размер потока : 208 Мбайт (2%)
Язык : English
Default : Нет
Alternate group : 1
Дата кодирования : UTC 2020-06-30 07: 26: 45
Дата пометки : UTC 2020-06-30 07: 38: 33
Fallback From : 15
tagc : public.main-program-content
Аудио #8
Идентификатор : 9
Формат : AC-3
Формат/Информация : Audio Coding 3
Коммерческое название : Dolby Digital
Идентификатор кодека : ac-3
Продолжительность : 2 ч. 28 м.
Вид битрейта : Постоянный
Битрейт : 640 Кбит/сек
Каналы : 6 каналов
Channel layout : L R C LFE Ls Rs
Частота : 48, 0 КГц
Частота кадров : 31, 250 кадров/сек (1536 SPF)
Метод сжатия : С потерями
Размер потока : 678 Мбайт (5%)
Язык : Russian
Service kind : Complete Main
Default : Inherited From: 2
Alternate group : 1
Дата кодирования : UTC 2020-06-30 07: 26: 45
Дата пометки : UTC 2020-06-30 07: 38: 33
Fallback To : 2
tagc : public.main-program-content
Аудио #9
Идентификатор : 10
Формат : AC-3
Формат/Информация : Audio Coding 3
Коммерческое название : Dolby Digital
Идентификатор кодека : ac-3
Продолжительность : 2 ч. 28 м.
Вид битрейта : Постоянный
Битрейт : 640 Кбит/сек
Каналы : 6 каналов
Channel layout : L R C LFE Ls Rs
Частота : 48, 0 КГц
Частота кадров : 31, 250 кадров/сек (1536 SPF)
Метод сжатия : С потерями
Размер потока : 678 Мбайт (5%)
Язык : Russian
Service kind : Complete Main
Default : Нет
Alternate group : 1
Дата кодирования : UTC 2020-06-30 07: 26: 45
Дата пометки : UTC 2020-06-30 07: 38: 33
Fallback To : 3
tagc : public.auxiliary-content
Аудио #10
Идентификатор : 11
Формат : AC-3
Формат/Информация : Audio Coding 3
Коммерческое название : Dolby Digital
Идентификатор кодека : ac-3
Продолжительность : 2 ч. 28 м.
Вид битрейта : Постоянный
Битрейт : 640 Кбит/сек
Каналы : 6 каналов
Channel layout : L R C LFE Ls Rs
Частота : 48, 0 КГц
Частота кадров : 31, 250 кадров/сек (1536 SPF)
Метод сжатия : С потерями
Размер потока : 678 Мбайт (5%)
Язык : Russian
Service kind : Complete Main
Default : Нет
Alternate group : 1
Дата кодирования : UTC 2020-06-30 07: 26: 45
Дата пометки : UTC 2020-06-30 07: 38: 33
Fallback To : 4
tagc : public.auxiliary-content
Аудио #11
Идентификатор : 12
Формат : AC-3
Формат/Информация : Audio Coding 3
Коммерческое название : Dolby Digital
Идентификатор кодека : ac-3
Продолжительность : 2 ч. 28 м.
Вид битрейта : Постоянный
Битрейт : 640 Кбит/сек
Каналы : 6 каналов
Channel layout : L R C LFE Ls Rs
Частота : 48, 0 КГц
Частота кадров : 31, 250 кадров/сек (1536 SPF)
Метод сжатия : С потерями
Размер потока : 678 Мбайт (5%)
Язык : Russian
Service kind : Complete Main
Default : Нет
Alternate group : 1
Дата кодирования : UTC 2020-06-30 07: 26: 45
Дата пометки : UTC 2020-06-30 07: 38: 33
Fallback To : 5
tagc : public.auxiliary-content
Аудио #12
Идентификатор : 13
Формат : AC-3
Формат/Информация : Audio Coding 3
Коммерческое название : Dolby Digital
Идентификатор кодека : ac-3
Продолжительность : 2 ч. 28 м.
Вид битрейта : Постоянный
Битрейт : 640 Кбит/сек
Каналы : 6 каналов
Channel layout : L R C LFE Ls Rs
Частота : 48, 0 КГц
Частота кадров : 31, 250 кадров/сек (1536 SPF)
Метод сжатия : С потерями
Размер потока : 678 Мбайт (5%)
Язык : Russian
Service kind : Complete Main
Default : Нет
Alternate group : 1
Дата кодирования : UTC 2020-06-30 07: 26: 45
Дата пометки : UTC 2020-06-30 07: 38: 33
Fallback To : 6
tagc : public.auxiliary-content
Аудио #13
Идентификатор : 14
Формат : AC-3
Формат/Информация : Audio Coding 3
Коммерческое название : Dolby Digital
Идентификатор кодека : ac-3
Продолжительность : 2 ч. 28 м.
Вид битрейта : Постоянный
Битрейт : 640 Кбит/сек
Каналы : 6 каналов
Channel layout : L R C LFE Ls Rs
Частота : 48, 0 КГц
Частота кадров : 31, 250 кадров/сек (1536 SPF)
Метод сжатия : С потерями
Размер потока : 678 Мбайт (5%)
Язык : Ukrainian
Service kind : Complete Main
Default : Нет
Alternate group : 1
Дата кодирования : UTC 2020-06-30 07: 26: 45
Дата пометки : UTC 2020-06-30 07: 38: 33
Fallback To : 7
tagc : public.main-program-content
Аудио #14
Идентификатор : 15
Формат : AC-3
Формат/Информация : Audio Coding 3
Коммерческое название : Dolby Digital
Идентификатор кодека : ac-3
Продолжительность : 2 ч. 28 м.
Вид битрейта : Постоянный
Битрейт : 640 Кбит/сек
Каналы : 6 каналов
Channel layout : L R C LFE Ls Rs
Частота : 48, 0 КГц
Частота кадров : 31, 250 кадров/сек (1536 SPF)
Метод сжатия : С потерями
Размер потока : 678 Мбайт (5%)
Язык : English
Service kind : Complete Main
Default : Нет
Alternate group : 1
Дата кодирования : UTC 2020-06-30 07: 26: 45
Дата пометки : UTC 2020-06-30 07: 38: 33
Fallback To : 8
tagc : public.main-program-content
Текст #1
Идентификатор : 16
Формат : Timed Text
Режим смешивания : sbtl
Идентификатор кодека : tx3g
Продолжительность : 2 ч. 27 м.
Вид битрейта : Переменный
Битрейт : 94 бит/сек
Размер потока : 102 Кбайт (0%)
Язык : Russian
Default : Да
Forced : Нет
Alternate group : 2
Дата кодирования : UTC 2020-06-30 07: 26: 45
Дата пометки : UTC 2020-06-30 07: 38: 33
tagc : public.main-program-content
Текст #2
Идентификатор : 17
Формат : Timed Text
Режим смешивания : sbtl
Идентификатор кодека : tx3g
Продолжительность : 2 ч. 27 м.
Вид битрейта : Переменный
Битрейт : 1 бит/сек
Размер потока : 715 байт (0%)
Язык : Russian
Default : Нет
Forced : Нет
Alternate group : 2
Дата кодирования : UTC 2020-06-30 07: 26: 45
Дата пометки : UTC 2020-06-30 07: 38: 33
tagc : public.auxiliary-content
Текст #3
Идентификатор : 18
Формат : Timed Text
Режим смешивания : sbtl
Идентификатор кодека : tx3g
Продолжительность : 2 ч. 10 м.
Вид битрейта : Переменный
Битрейт : 1 бит/сек
Размер потока : 537 байт (0%)
Язык : Russian
Default : Нет
Forced : Нет
Alternate group : 2
Дата кодирования : UTC 2020-06-30 07: 26: 45
Дата пометки : UTC 2020-06-30 07: 38: 33
tagc : public.subtitles.forced-only
Текст #4
Идентификатор : 19
Формат : Timed Text
Режим смешивания : sbtl
Идентификатор кодека : tx3g
Продолжительность : 2 ч. 21 м.
Вид битрейта : Переменный
Битрейт : 103 бит/сек
Размер потока : 107 Кбайт (0%)
Язык : Russian
Default : Нет
Forced : Нет
Alternate group : 2
Дата кодирования : UTC 2020-06-30 07: 26: 45
Дата пометки : UTC 2020-06-30 07: 38: 33
tagc : public.auxiliary-content
Текст #5
Идентификатор : 20
Формат : Timed Text
Режим смешивания : sbtl
Идентификатор кодека : tx3g
Продолжительность : 2 ч. 21 м.
Вид битрейта : Переменный
Битрейт : 108 бит/сек
Размер потока : 112 Кбайт (0%)
Язык : Russian
Default : Нет
Forced : Нет
Alternate group : 2
Дата кодирования : UTC 2020-06-30 07: 26: 45
Дата пометки : UTC 2020-06-30 07: 38: 33
tagc : public.accessibility.transcribes-spoken-dialog
Текст #6
Идентификатор : 21
Формат : Timed Text
Режим смешивания : sbtl
Идентификатор кодека : tx3g
Продолжительность : 2 ч. 20 м.
Вид битрейта : Переменный
Битрейт : 64 бит/сек
Размер потока : 66, 1 Кбайт (0%)
Язык : English
Default : Нет
Forced : Нет
Alternate group : 2
Дата кодирования : UTC 2020-06-30 07: 26: 45
Дата пометки : UTC 2020-06-30 07: 38: 33
tagc : public.main-program-content
Текст #7
Идентификатор : 22
Формат : Timed Text
Режим смешивания : sbtl
Идентификатор кодека : tx3g
Продолжительность : 2 ч. 27 м.
Вид битрейта : Переменный
Битрейт : 65 бит/сек
Размер потока : 70, 2 Кбайт (0%)
Язык : English
Default : Нет
Forced : Нет
Alternate group : 2
Дата кодирования : UTC 2020-06-30 07: 26: 45
Дата пометки : UTC 2020-06-30 07: 38: 33
tagc : public.accessibility.transcribes-spoken-dialog
Меню
Идентификатор : 23
Идентификатор кодека : text
Продолжительность : 2 ч. 28 м.
Язык : English
Дата кодирования : UTC 2020-06-30 07: 38: 33
Дата пометки : UTC 2020-06-30 07: 38: 33
Menu For : 1
00: 00: 00.000 : Scene 1
00: 11: 41.743 : Scene 2
00: 21: 37.338 : Scene 3
00: 31: 20.337 : Scene 4
00: 41: 22.230 : Scene 5
00: 51: 13.737 : Scene 6
01: 01: 21.553 : Scene 7
01: 10: 29.684 : Scene 8
01: 22: 15.597 : Scene 9
01: 31: 52.590 : Scene 10
01: 40: 38.532 : Scene 11
01: 51: 22.175 : Scene 12
02: 00: 54.414 : Scene 13
02: 10: 09.051 : Scene 14
02: 20: 55.447 : Scene 15
Рейтинг →
 (голосов: 1, оценка 5/5, голосовать можно 1 раз )

Другие торренты по теме:

  • Hans Zimmer - Начало / Inception (Complete Motion Picture Score) (2010) [MP3|320 кб / с]<Soundtrack>
  • Начало / Inception (2010) BDRip [H.264 / 1080p-LQ] скачать через торрент бесплатно
  • Начало / Inception (2010) BDRip [H.264]
  • Начало / Inception (2010) BDRip [H.264 / 720p] скачать через торрент бесплатно
  • Начало / Inception (2010) BDRip [H.265 / 1080p]
  • Начало / Inception (2010) DVDRip [MP4|640x272]
  • Начало / Inception (2010) BDRip [H.264 / 720p-LQ]
  • Начало / Inception (2010) UHD BDRemux [H.265 / 2160p] [4K, HDR, 10-bit]


    • Комментарии (0):

      Информация

      Информация

        Посетители, находящиеся в группе Гости, не могут оставлять комментарии в данной новости.